Tomiris 2019 WEB-DL 1080p ELEKTRI4KA UNIONGANG

Torrent Details


Tomiris 2019 WEB-DL 1080p ELEKTRI4KA UNIONGANG

NAME
Tomiris 2019 WEB-DL 1080p ELEKTRI4KA UNIONGANG.torrent
CATEGORY
Movies
INFOHASH
edca1d2f495c8f0489ea2eb3704b1bff97fbe4f3
SIZE
5.4 GB in 1 file
ADDED
Uploaded on 04-09-2020 by our crawler pet called "Spidey".
SWARM
0 seeders & 0 peers
RATING
No votes yet.

Please login to vote for this torrent.


Description

Информация о фильме

Название: Томирис

Оригинальное название: Tomiris

Год выхода: 2019

Жанр: исторический, драма, экранизация

Режиссер: Акан Сатаев

В ролях: Альмира Турсын, Адиль Ахметов, Еркебулан Дайыров, Берик Айтжанов, Азамат Сатыбалды, Гассан Массуд, Илез Бадургов, Мурат Бисенбин, Аян Утепберген, Асылхан Толепов



О фильме: Среди древних народов, населявших просторы Евразии, особо выделялись племена, называющие себя саками. Это были кочевники и великие воины степи. Начинается история с краткого жизнеописания отца Томирис — царя Спаргапа. Спаргап, имея право на царский трон, вовлечён в войну между родами саков — массагетов. Влиятельные вожди, среди которых выделяются алчные и хитроумные Каваз и Куртун, не спешат объединяться под единой властью, отстаивая свои интересы. Спаргап мечом и словом пытается объединить степные племена. В это тревожное время у него рождается дочь — Томирис. Её мать, Бопай, которую Спаргап очень любил, умирает при родах. Забота и воспитание ложатся на него, и Томирис с раннего возраста познаёт тяготы походной жизни и воинского быта. Вероломные Каваз и Куртун устраивают заговор в результате чего Спаргап погибает. В степи опять наступает раздор и междоусобица. Маленькой Томирис удаётся уйти от убийц с верными людьми Спаргапа. За её голову негласно объявлена награда.Томирис растет, скрываясь в лесах и живя охотой. Теперь ее цель вернуть законный трон и объединить степные племена. Но Томирис и не подозревает, что ей придется столкнуться с более могущественной угрозой, которая может стереть с лица земли всех саков… Фильм снят по одноименному роману Булата Жандарбекова.







Выпущено: Казахстан / Студия Казахфильм, Sataifilm

Продолжительность: 02:35:02

Озвучивание: Дублированное | iTunes

Язык: Русский



Файл

Формат: MKV

Качество: WEB-DL 1080p

Видео: MPEG-4 AVC, 4561 Kb/s, 1920x804

Аудио: Russian: 48 kHz, AC3 Dolby Digital, 3/2 (L, C, R, l, r) + LFE ch, ~384 Kbps

Субтитры: Нет

Дополнительно: Сохранены оригинальные чаптеры.



Релиз группы: &



MediaInfo:Complete name: Tomiris.2019.WEB-DL.1080p.ELEKTRI4KA.UNIONGANG.mkv

Format: Matroska

Format version: Version 4 / Version 2

File size: 5.36 GiB

Duration: 2 h 35 min

Overall bit rate: 4 947 kb/s

Movie name: .ELEKTRI4KA.UNIONGANG.

Encoded date: UTC 2020-09-04 18:08:59

Writing application: mkvmerge v8.3.0 ('Over the Horizon') 64bit

Writing library: libebml v1.3.1 + libmatroska v1.4.2



Video

ID: 1

Format: AVC

Format/Info: Advanced Video Codec

Format profile: [email protected]

Format settings, CABAC: Yes

Format settings, Reference frames: 5 frames

Codec ID: V_MPEG4/ISO/AVC

Duration: 2 h 35 min

Bit rate: 4 561 kb/s

Width: 1 920 pixels

Height: 804 pixels

Display aspect ratio: 2.40:1

Frame rate mode: Constant

Frame rate: 24.000 FPS

Color space: YUV

Chroma subsampling: 4:2:0

Bit depth: 8 bits

Scan type: Progressive

Bits/(Pixel*Frame): 0.123

Stream size: 4.94 GiB (92%)

Title: .ELEKTRI4KA.UNIONGANG.

Language: English

Default: Yes

Forced: No

Color range: Limited

Color primaries: BT.709

Transfer characteristics: BT.709

Matrix coefficients: BT.709



Audio

ID: 2

Format: AC-3

Format/Info: Audio Coding 3

Mode extension: CM (complete main)

Format settings, Endianness: Big

Codec ID: A_AC3

Duration: 2 h 35 min

Bit rate mode: Constant

Bit rate: 384 kb/s

Channel(s): 6 channels

Channel positions: Front: L C R, Side: L R, LFE

Sampling rate: 48.0 kHz

Frame rate: 31.250 FPS (1536 spf)

Bit depth: 16 bits

Compression mode: Lossy

Stream size: 426 MiB (8%)

Title: iTunes

Language: Russian

Default: Yes

Forced: No



Menu

00:00:00.000: en:Глава 1

00:08:02.958: en:Глава 2

00:16:17.333: en:Глава 3

00:25:56.291: en:Глава 4

00:34:26.999: en:Глава 5

00:43:34.082: en:Глава 6

00:52:23.498: en:Глава 7

01:01:27.331: en:Глава 8

01:08:29.206: en:Глава 9

01:16:14.331: en:Глава 10

01:25:02.539: en:Глава 11

01:32:09.705: en:Глава 12

01:39:21.538: en:Глава 13

01:48:07.746: en:Глава 14

01:57:23.454: en:Глава 15

02:06:28.204: en:Глава 16

02:16:14.870: en:Глава 17

02:24:12.328: en:Глава 18Скриншоты

Discussion

Comments 0

Post Your Comment

Files in this torrent

FILENAMESIZE
Tomiris.2019.WEB-DL.1080p.ELEKTRI4KA.UNIONGANG.mkv5.4 GB

Alternative Torrents for 'Tomiris ELEKTRIKA UNIONGANG'.

TORRENT NAMEADDEDSIZESEEDSPEERSHEALTH
9/12/20201.5 GB924
9/19/20201.4 GB8315
9/12/20203.3 GB694
9/19/20201.5 GB6841
9/12/20201.5 GB653
9/19/20201.4 GB5219
9/19/20203 GB4924
9/12/20201.5 GB432
9/19/20203.2 GB4212
9/12/202015.1 GB423
9/19/20201.4 GB3910
9/12/20201.5 GB241
9/19/20202.7 GB213
9/12/20202.9 GB191
9/6/20202.9 GB111